top of page

Low-Res. Preview

4K Retro Gaming Tunnel- Motion Background Animation

Format                      : MPEG-4
Format profile              : Base Media
Codec ID                    : isom (isom/iso2/avc1/mp41)
File size                   : 1.45 GiB
Duration                    : 2 min 0 s
Overall bit rate            : 104 Mb/s
Encoded date                : UTC 2023-04-24 07:40:44
Tagged date                 : UTC 2023-04-24 07:40:44
Writing application         : Blackmagic Design DaVinci Resolve Studio

Video
ID                          : 1
Format                      : AVC
Format/Info                 : Advanced Video Codec
Format profile              : High@L5.2
Format settings             : CABAC / 4 Ref Frames
Format settings, CABAC      : Yes
Format settings, Reference  : 4 frames
Format settings, GOP        : M=3, N=12
Codec ID                    : avc1
Codec ID/Info               : Advanced Video Coding
Duration                    : 2 min 0 s
Bit rate                    : 103 Mb/s
Width                       : 3 840 pixels
Height                      : 2 160 pixels
Display aspect ratio        : 16:9
Frame rate mode             : Constant
Frame rate                  : 60.000 FPS
Color space                 : YUV
Chroma subsampling          : 4:2:0
Bit depth                   : 8 bits
Scan type                   : Progressive
Bits/(Pixel*Frame)          : 0.208
Stream size                 : 1.44 GiB (100%)
Encoded date                : UTC 2023-04-24 07:40:44
Tagged date                 : UTC 2023-04-24 07:40:44
Color range                 : Limited
Color primaries             : BT.709
Matrix coefficients         : BT.709
Codec configuration box     : avcC

Audio
ID                          : 2
Format                      : AAC LC
Format/Info                 : Advanced Audio Codec Low Complexity
Codec ID                    : mp4a-40-2
Duration                    : 2 min 0 s
Bit rate mode               : Constant
Bit rate                    : 117 kb/s
Channel(s)                  : 2 channels
Channel layout              : L R
Sampling rate               : 48.0 kHz
Frame rate                  : 46.875 FPS (1024 SPF)
Compression mode            : Lossy
Stream size                 : 1.68 MiB (0%)
Default                     : Yes
Alternate group             : 1
Encoded date                : UTC 2023-04-24 07:40:44
Tagged date                 : UTC 2023-04-24 07:40:44
 

4K Retro Gaming Tunnel- Motion Background Animation

$28.00 מחיר רגיל
$14.00מחיר מבצע
    bottom of page